#TITLE:Everytime We Touch;
#SUBTITLE:;
#ARTIST:Cascada;
#TITLETRANSLIT:;
#SUBTITLETRANSLIT:;
#ARTISTTRANSLIT:;
#CREDIT:;
#BANNER:Everytime We Touch-banner.bmp;
#BACKGROUND:Everytime We Touch-bg.bmp;
#LYRICSPATH:;
#CDTITLE:;
#MUSIC:Every_Time_We_Touch.mp3;
#OFFSET:-1.640;
#SAMPLESTART:100.000;
#SAMPLELENGTH:12.000;
#SELECTABLE:YES;
#BPMS:0.000=142.000;
#STOPS:;
#BGCHANGES:;
// cache tags:
#FIRSTBEAT:4.000;
#LASTBEAT:456.000;
#SONGFILENAME:Songs/nhac/Every_Time_We_Touch/Every_Time_We_Touch.sm;
#HASMUSIC:1;
#HASBANNER:1;
#MUSICLENGTH:199.634;
// end cache tags

//---------------dance-single - ----------------
#NOTES:
     dance-single:
     :
     Beginner:
     1:
     0.082,0.086,0.000,0.000,0.000,114.000,0.000,0.000,0.000,0.000:
0000
0000
0000
0000
,
1000
0000
0000
0000
,
0010
0000
0000
0000
,
0100
0000
0000
0000
,
0001
0000
0000
0000
,
1000
0000
0000
0000
,
0010
0000
0000
0000
,
0100
0000
0000
0000
,
0001
0000
0000
0000
,
0100
0000
0000
0000
,
0001
0000
0000
0000
,
0010
0000
0000
0000
,
1000
0000
0000
0000
,
0010
0000
0000
0000
,
0001
0000
0000
0000
,
0100
0000
0000
0000
,
0010
0000
0000
0000
,
0001
0000
0000
0000
,
1000
0000
0000
0000
,
0010
0000
0000
0000
,
0001
0000
0000
0000
,
0010
0000
0000
0000
,
1000
0000
0000
0000
,
0100
0000
0000
0000
,
0001
0000
0000
0000
,
0010
0000
0000
0000
,
0100
0000
0000
0000
,
0001
0000
0000
0000
,
1000
0000
0000
0000
,
0010
0000
0000
0000
,
0100
0000
0000
0000
,
0001
0000
0000
0000
,
0010
0000
0000
0000
,
0100
0000
0000
0000
,
1000
0000
0000
0000
,
0001
0000
0000
0000
,
0010
0000
0000
0000
,
0010
0000
0000
0000
,
0100
0000
0000
0000
,
0001
0000
0000
0000
,
1000
0000
0000
0000
,
0100
0000
0000
0000
,
0001
0000
0000
0000
,
0010
0000
0000
0000
,
1000
0000
0000
0000
,
0001
0000
0000
0000
,
0100
0000
0000
0000
,
0010
0000
0000
0000
,
0001
0000
0000
0000
,
0010
0000
0000
0000
,
1000
0000
0000
0000
,
0001
0000
0000
0000
,
0010
0000
0000
0000
,
0100
0000
0000
0000
,
0001
0000
0000
0000
,
1000
0000
0000
0000
,
0100
0000
0000
0000
,
0010
0000
0000
0000
,
0001
0000
0000
0000
,
0100
0000
0000
0000
,
1000
0000
0000
0000
,
0010
0000
0000
0000
,
0001
0000
0000
0000
,
0010
0000
0000
0000
,
1000
0000
0000
0000
,
0010
0000
0000
0000
,
0001
0000
0000
0000
,
0100
0000
0000
0000
,
0001
0000
0000
0000
,
0010
0000
0000
0000
,
0100
0000
0000
0000
,
0001
0000
0000
0000
,
0100
0000
0000
0000
,
0001
0000
0000
0000
,
0010
0000
0000
0000
,
1000
0000
0000
0000
,
0001
0000
0000
0000
,
0010
0000
0000
0000
,
0100
0000
0000
0000
,
0001
0000
0000
0000
,
1000
0000
0000
0000
,
0100
0000
0000
0000
,
0001
0000
0000
0000
,
0010
0000
0000
0000
,
0100
0000
0000
0000
,
1000
0000
0000
0000
,
0001
0000
0000
0000
,
0010
0000
0000
0000
,
0100
0000
0000
0000
,
0001
0000
0000
0000
,
0010
0000
0000
0000
,
0100
0000
0000
0000
,
1000
0000
0000
0000
,
0001
0000
0000
0000
,
0010
0000
0000
0000
,
0001
0000
0000
0000
,
0100
0000
0000
0000
,
0001
0000
0000
0000
,
1000
0000
0000
0000
,
0010
0000
0000
0000
,
0100
0000
0000
0000
,
0001
0000
0000
0000
,
1000
0000
0000
0000
,
0010
0000
0000
0000
,
0001
0000
0000
0000
,
0100
0000
0000
0000
,
0001
0000
0000
0000
,
0010
0000
0000
0000
,
1000
0000
0000
0000
,
0010
0000
0000
0000
,
0100
0000
0000
0000
,
0001
0000
0000
0000
,
0010
0000
0000
0000
,
1000
0000
0000
0000
,
0001
0000
0000
0000
;

//---------------dance-single - ----------------
#NOTES:
     dance-single:
     :
     Easy:
     4:
     0.242,0.286,0.010,0.000,0.000,336.000,2.000,0.000,0.000,0.000:
0000
0000
0000
0000
,
1000
0000
0000
0100
0000
0000
0000
0000
,
0001
0000
0000
0010
0000
0000
0000
0000
,
1000
0000
0000
0100
0000
0000
0000
0000
,
0010
0000
0000
0000
,
1000
0000
0000
0001
0000
0000
0000
0000
,
0010
0000
0000
0100
0000
0000
0001
0000
,
0000
1000
0000
0000
,
0010
0000
0000
0000
,
0010
0000
0000
0100
0000
0000
0000
0000
,
0001
0000
0000
0010
0000
0000
0000
0000
,
1000
0000
0000
0100
0000
0000
0010
0000
,
0001
0000
0000
1000
,
0100
0000
0000
0010
0000
0000
1000
0000
,
0010
0000
0000
1000
0000
0010
0000
0000
,
0000
1000
0000
0000
,
0000
0000
0000
0000
,
1000
0100
0010
0001
,
0001
1000
0100
0010
,
0001
0001
0001
0010
,
0100
1000
0100
0010
,
1000
0100
0010
0001
,
0001
1000
0100
0010
,
0001
1000
0010
0100
,
0001
0000
0000
0000
,
1000
0010
0000
0010
,
1000
0100
0010
0001
,
0010
0100
0000
0001
,
0010
0100
1000
0100
,
0010
0100
0000
0001
,
0010
0100
1000
0010
,
0100
0001
1000
0100
,
0010
0000
0000
0000
,
1000
0100
0010
0001
,
0000
0000
1000
0001
,
1000
0001
0010
0100
,
1000
0000
0000
0000
,
0100
0010
0100
0010
,
0001
1000
0001
0100
,
0010
0100
0010
0100
,
0010
0000
0000
0000
,
1000
0100
1000
0100
,
0010
0000
0000
0001
,
0010
0100
0010
0001
,
0010
0100
0000
0100
,
0001
0010
0100
0010
,
0100
1000
0010
0100
,
0001
0010
0100
1000
,
0100
0000
0000
0000
,
0001
0010
0100
1000
,
0001
0010
0000
0000
,
1000
0100
0010
0001
,
0010
0000
0000
0000
,
0010
0100
0001
1000
,
0010
1000
0100
0010
,
0001
0010
0100
1000
,
0100
0000
0000
0000
,
1001
0000
0000
0000
,
1000
0000
0000
0100
0000
0000
0000
0000
,
0001
0000
0000
0010
0000
0000
0000
0000
,
0100
0000
0000
0001
0000
0000
0000
0000
,
1000
0000
0000
0000
,
0001
0000
0000
0010
0000
0000
0000
0000
,
1000
0000
0000
0100
0000
0000
0001
0000
,
0000
0010
0000
0000
,
0000
0000
0000
0000
,
1000
0100
0010
0001
,
1000
0100
0010
0001
,
1000
0100
0010
0001
,
0001
0010
0100
1000
,
0001
0010
0100
1000
,
0001
0010
0100
1000
,
0100
0010
1000
0001
,
0100
0000
0000
0000
,
0001
0010
0000
0010
,
0001
0010
0000
0000
,
0100
0010
0000
0100
,
1000
0100
0000
0000
,
0010
0001
0000
0100
,
0010
0100
0000
0000
,
1000
0100
0010
0001
,
1000
0000
0000
0000
,
0100
0100
0100
0100
,
1000
1000
1000
1000
,
0010
0010
0010
0010
,
0001
0001
0001
0001
,
0100
1000
0100
0010
,
0001
0010
0100
1000
,
0100
0010
0001
0010
,
0100
0000
0000
0000
,
1000
0100
0000
0001
,
0010
0001
0100
0001
,
0010
0001
0000
1000
,
0100
0000
0010
0001
,
0010
0001
0010
0100
,
1000
0010
0100
0000
,
0001
0010
0000
0000
,
0100
1000
0000
0000
,
1000
0100
0010
0001
,
0010
0100
1000
0100
,
0010
0001
0100
0010
,
1000
0001
1000
0010
,
0100
0001
1000
0001
,
0010
0001
1000
0010
,
0100
0001
1000
0010
,
1000
0000
0000
0000
,
1000
0100
0010
0001
,
0010
0100
0010
0001
,
1000
0010
0000
0001
,
0010
0001
1000
0001
,
0010
0001
1000
0010
,
0100
0001
1000
0010
,
0100
0001
1000
0010
,
0001
0100
0001
0010
,
1001
0000
0000
0000
;

//---------------dance-single - ----------------
#NOTES:
     dance-single:
     :
     Medium:
     6:
     0.341,0.514,0.150,0.065,0.000,434.000,30.000,13.000,0.000,0.000:
0000
0000
0000
0000
,
1000
0000
0000
0100
0000
0000
0010
0000
,
0001
0000
0000
1000
0000
0000
0100
0000
,
0001
0000
0000
1000
0000
0000
0010
0000
,
0200
0000
0000
0000
,
1300
0000
0000
0100
0000
0000
0010
0000
,
0100
0000
0000
0010
0000
0000
0001
0000
,
0000
0200
0000
0000
,
0300
0000
0000
1000
,
1000
0000
0000
0100
0000
0000
0010
0000
,
0001
0000
0000
0100
0000
0000
0010
0000
,
1000
0000
0000
0100
0000
0000
0001
0000
,
0010
0000
0000
0010
,
1000
0000
0000
0100
0000
0000
0001
0000
,
0010
0000
0000
0100
0000
0000
0010
0000
,
0000
0002
0000
0000
,
0003
0000
1000
0100
,
0010
0000
0000
1000
0100
0000
0001
0010
,
0000
0100
0000
0000
1000
0000
0010
0000
,
0100
0000
1000
0100
0000
0001
0010
0100
,
0000
0000
1000
0100
,
0010
0100
0010
0001
,
0010
0100
1000
0010
,
0100
0001
1000
0100
,
0010
0000
0001
0010
,
0100
0000
0000
1000
0100
0000
0010
0001
,
0000
0010
0000
0000
1000
0000
0010
0000
,
0100
0000
0010
0001
0000
1000
0100
0010
,
0000
0000
0001
0010
,
0001
0100
1000
0100
,
0001
0010
0001
0100
,
0010
1000
0010
0100
,
0010
0000
0000
1000
0100
0010
0001
1000
,
0100
0000
0100
0000
0100
0000
0100
0010
,
0000
0010
0000
0010
0001
1000
0100
0010
,
0001
0000
0100
0010
0000
0010
0100
0010
,
0000
0000
1000
0100
,
0010
0001
0010
0100
,
0010
0001
0010
0001
0010
0000
1000
0000
,
0100
0000
0010
0000
0001
0000
1000
0100
,
0010
0000
0000
0010
0001
0010
0100
1000
,
0001
0100
0010
0001
,
1000
0100
0000
0001
,
0010
0001
0010
0100
,
1000
0000
0010
0001
,
0010
0100
1000
0010
,
0100
0001
0100
0001
0100
0000
0000
0000
,
0001
0010
0001
0100
,
0010
0000
0000
0010
0001
0010
0100
1000
,
0100
0010
0001
0010
,
0100
1000
0100
0010
,
0001
0010
0001
0100
,
0010
1000
0010
0100
,
0001
1000
0010
0100
,
0001
0010
0100
0010
0001
0000
0001
0000
,
0010
0000
0100
0000
0001
0000
0100
1000
,
0100
0000
0000
0000
,
1001
0000
0000
0000
,
0001
0000
0000
0100
0000
0000
0001
0000
,
0010
0000
0000
1000
0000
0000
0010
0000
,
0001
0000
0000
0100
0000
0000
0010
0000
,
0002
0000
0000
0000
,
1003
0000
0000
0100
0000
0000
0010
0000
,
0001
0000
0000
0010
0000
0000
0100
0000
,
0000
2000
0000
0000
,
3001
0000
0000
0100
,
0010
0000
0000
0001
0000
0000
0100
0000
,
0010
0000
0000
0100
0000
0000
0001
0000
,
0010
0000
0000
0100
0000
0000
0010
0000
,
0002
0000
0000
0000
,
1003
0000
0000
0100
0000
0000
0010
0000
,
0001
0000
0000
0010
0000
0000
0001
0000
,
0000
0020
0000
0000
,
0000
0000
0030
1000
0100
0010
0001
0010
,
0100
0000
0000
1000
0100
0000
0010
0001
,
0000
1000
0000
0001
0010
0100
1000
0010
,
0100
0000
1000
0100
0000
0010
0001
0010
,
0000
0000
0000
0000
0010
0001
1000
0100
,
0010
0000
1000
0000
0100
0000
0000
0001
,
0010
0100
0010
0001
0000
0000
0000
0000
,
1000
0000
0100
0010
0000
0001
0000
0010
,
0000
0000
0000
0100
1000
0100
0010
0001
,
0010
0110
1100
0110
,
0011
0101
1010
1001
,
1001
1001
0011
0110
,
0110
0011
1100
0101
,
0101
1100
0110
1100
,
1100
1100
0011
0110
,
1001
0011
1100
1010
,
0101
0000
0000
0001
0010
0100
1000
0001
,
0010
0000
1000
0000
0100
0000
0001
0010
,
0000
0100
0000
1000
0100
0010
0001
0010
,
0100
0000
0001
0010
0000
0010
0100
1000
,
0000
0000
0000
0010
0001
1000
0010
0100
,
0001
1000
0010
0100
,
0001
0010
0100
1000
0100
0000
0010
0000
,
0001
0000
1000
0000
0010
0000
0100
0001
,
0010
0000
0000
1000
0010
0100
0001
0010
,
0100
1000
0100
0010
,
0001
0010
0100
0001
,
0010
0100
1000
0100
,
0010
0001
0000
0001
,
0010
0001
0010
0100
,
1000
0010
0100
0001
,
1000
0010
0100
0001
,
1000
0000
0000
0010
0001
0010
0100
1000
,
0001
0000
0000
0100
0010
0000
0001
0020
,
0000
0130
0000
0010
0001
0010
0100
1000
,
0010
0000
0001
0020
0000
0130
0001
0020
,
0000
0000
0000
0030
0100
0010
0001
0010
,
0100
0000
0010
0000
0002
0000
0003
0100
,
0010
0100
1000
0002
0000
0000
0000
0000
,
0013
0000
1000
0100
0000
0010
0000
0200
,
0000
0000
0000
0000
0000
0000
0000
0300
,
1001
0000
0000
0000
;

//---------------dance-single - ----------------
#NOTES:
     dance-single:
     :
     Hard:
     8:
     0.457,0.628,0.165,0.381,0.050,530.000,33.000,76.000,0.000,10.000:
0000
0000
0000
0000
,
2000
0000
0000
3100
0000
0000
0010
0000
,
0002
0000
0000
0103
0000
0000
1000
0000
,
0020
0000
0000
0130
0000
0000
0010
0000
,
0002
0000
0000
1000
,
2003
0000
0000
3100
0000
0000
0010
0000
,
0002
0000
0000
0013
0000
0000
0200
0000
,
0000
0000
2300
0100
0000
0010
0000
0000
,
0000
3001
0000
0000
0000
0000
1000
0000
,
0200
0000
0000
0310
0000
0000
0001
0000
,
0020
0000
0000
0130
0000
0000
1000
0000
,
0200
0000
0000
0301
0000
0000
0010
0000
,
2000
0000
0000
3001
,
0020
0000
0000
0130
0000
0000
1000
0000
,
0200
0000
0000
0301
0000
0000
0002
0000
,
0000
2000
0000
0000
,
0000
0000
3003
1000
0100
0010
0001
0010
,
0200
0000
0000
0310
0001
0000
0001
0020
,
0000
0130
0000
0001
0010
0001
1000
0100
,
1000
0000
0100
0020
0000
0031
0010
0200
,
0000
0000
0000
0000
0310
0001
1000
0010
,
0100
0000
1000
0000
0200
0000
0000
0310
,
0001
1000
0100
0020
0000
0000
0000
0000
,
1030
0000
0100
0020
0000
0032
0000
2003
,
0000
0000
0000
3100
0010
0001
1000
0100
,
0010
0000
0000
0001
0010
0000
0100
0010
,
0000
0001
0000
1000
0010
0100
0001
1000
,
0010
0000
1000
0100
0000
0100
1000
0200
,
0000
0000
0000
0000
1300
0010
0100
0001
,
0010
0000
1000
0000
0100
0000
0000
1000
,
0010
0100
0001
2000
0000
0000
0000
0000
,
3001
0000
0010
0100
0000
0010
0000
0002
,
0000
0000
0000
1003
0010
0100
0001
0100
,
0010
0000
1000
0000
0100
0000
0010
0002
,
0000
0013
0000
1000
0010
0100
0001
1000
,
0100
0000
0001
0010
0000
0010
0100
1000
,
0000
0000
0000
0000
0000
0000
1000
0100
0010
0000
0001
0000
0010
0000
0100
0000
,
1000
0100
0010
0001
,
1000
0000
0100
0000
0010
0000
0001
0000
0010
0000
0000
0000
0100
0000
0000
0010
,
0100
0000
1000
0000
0100
0000
0010
0001
,
0010
0000
0000
0000
0000
0000
1000
0010
0100
0000
0001
0000
0100
0000
0010
0000
,
1000
0000
0100
0000
0010
0000
0001
2000
,
0000
3100
0000
1000
0100
0010
0001
0010
,
0100
0000
1000
0100
0000
0100
1000
0020
,
0000
0000
0000
0000
0000
0000
1030
0001
0100
0000
0010
0000
0001
0000
1000
0000
,
0100
0010
1000
0100
,
0010
0000
0100
0000
0010
0000
0100
0000
0010
0000
0000
0000
1000
0000
0000
0010
,
0100
0000
1000
0000
0010
0000
0100
0001
,
0100
0000
0000
0000
0000
0000
1000
0001
1000
0000
0010
0000
0100
0000
0001
0000
,
1000
0110
0001
0011
,
1000
0110
0001
0011
,
1000
1100
0010
0101
,
1000
0011
0100
1001
,
0010
0101
1100
0110
,
0010
0000
0001
0000
1000
0000
0100
0000
0010
0000
0000
0000
1000
0000
0000
0010
,
0100
0000
1000
0000
0100
0000
0010
0001
,
0020
0000
0000
0000
0000
0000
0000
0030
,
1001
0000
0000
1000
,
0200
0000
0000
0310
0000
0000
0001
0000
,
0020
0000
0000
0130
0000
0000
1000
0000
,
0200
0000
0000
0310
0000
0000
1000
0000
,
0200
0000
0300
0001
,
0020
0000
0000
0130
0000
0000
0001
0000
,
0020
0000
0000
0130
0000
0000
0002
0000
,
0000
2000
0010
0100
,
0020
0000
3033
1000
,
1000
0000
0000
0100
0000
0000
0010
0000
,
0002
0000
0000
0103
0000
0000
1000
0000
,
0200
0000
0000
0310
0000
0000
1000
0000
,
0200
0000
0310
0001
,
2000
0000
0000
3100
0000
0000
0010
0000
,
0002
0000
0000
0103
0000
0000
0020
0000
,
0000
0200
0000
0000
,
0330
0000
0000
1000
0100
0010
0001
0010
,
0100
1000
0010
0100
0001
1000
0001
0010
,
0100
0001
1000
0001
0000
0001
0000
0001
,
1000
0010
0100
0001
1000
0100
0010
0001
,
1000
0010
0100
0001
0000
0001
0000
0001
,
1000
0100
0010
0001
1000
0100
0001
0010
,
1000
0010
0100
0001
1000
0010
0100
0001
,
1000
0001
0010
0001
0100
0001
1000
0010
,
0100
0001
1000
0010
0001
1000
0001
0010
,
2200
3310
0202
0313
,
0220
0331
2200
3310
,
2002
3013
0220
0331
,
0022
0000
0133
0000
1000
0010
0100
0001
,
0100
0000
0010
0000
0200
0000
0000
0310
,
0001
1000
0010
0200
0000
0000
0000
0000
,
0310
0000
0100
0020
0000
0032
0000
0203
,
0000
0000
0000
0000
0000
0000
0310
0001
0010
0000
1000
0000
0010
0000
0100
0000
,
0001
0000
1000
0000
0010
0000
0100
0002
,
0000
0013
0000
1000
0100
0010
0001
1000
,
0010
0000
0100
0020
0000
0031
1000
0010
,
0000
0000
0000
0000
0000
0000
1000
0010
0100
0000
0001
0000
1000
0000
0010
0000
,
0100
0001
0010
0100
,
0001
0000
0010
0000
0100
0000
0010
0000
0100
0000
0000
0000
1000
0000
0000
0001
,
0010
0000
1000
0000
0010
0000
0100
0001
,
0010
0000
0000
0000
0000
0000
0001
0010
0001
0000
0100
0000
1000
0000
0001
0000
,
0010
0000
0100
0000
0010
0000
0001
0020
,
0000
0130
0000
1000
0010
0100
0001
0010
,
0100
0000
1000
0200
0000
0310
0001
2000
,
0000
0000
0000
0000
0000
0000
3100
0010
0001
0000
0010
0000
0100
0000
0001
0000
,
0100
1000
0100
0010
,
0001
0000
0010
0000
0001
0000
0010
0000
0001
0000
0000
0000
1000
0000
0000
0100
,
0010
0000
1000
0000
0010
0000
0100
0001
,
0010
0000
0000
1000
0010
0100
0001
0010
,
0100
1100
0110
0011
,
0110
1100
1010
0110
,
0101
1100
0011
0101
,
1010
0000
0000
0000
1001
0000
0100
0010
0100
0000
0001
0000
1000
0000
0010
0000
,
0100
0000
1000
0000
0200
0000
0000
0310
,
0001
1000
0010
0200
0000
0000
0000
0000
,
0310
0000
0100
0020
0000
2030
0000
3100
,
0000
0000
0000
0000
0001
1000
0001
1000
0001
1000
0001
1000
0001
1000
0001
1000
,
0110
0000
0000
0000
;

//---------------dance-single - ----------------
#NOTES:
     dance-single:
     :
     Challenge:
     10:
     0.602,0.942,0.281,0.621,0.098,661.000,56.000,124.000,0.000,13.000:
0000
0000
0000
0000
,
2000
0000
0000
3100
0000
0000
0020
0000
,
0032
0000
0000
1003
0000
0000
0200
0000
,
0320
0000
0000
1030
0000
0000
0002
0000
,
0023
0000
0000
0230
,
0320
0000
0000
1030
0000
0000
0200
0000
,
0302
0000
0000
0013
0000
0000
2000
0000
,
0000
0000
0020
0100
0000
0001
0000
0000
,
0000
0100
0000
0000
3030
0000
2000
0000
,
3200
0000
0000
0301
0000
0000
0020
0000
,
0230
0000
0000
0310
0000
0000
0002
0000
,
0023
0000
0000
0130
0000
0000
2000
0000
,
3200
0000
0000
0302
,
0023
0000
0000
0130
0000
0000
2000
0000
,
3200
0000
0000
0320
0000
0030
0200
0000
,
0000
0002
0000
0000
,
0000
0000
0303
1000
0100
0010
0001
1000
,
0010
0100
0001
0010
0001
0010
1000
0001
,
0100
0010
0001
1000
0000
1000
0000
1000
,
0100
0010
0100
0001
1000
0010
0100
0010
,
0001
1000
0100
1000
0000
1000
0000
1000
,
0001
0010
0100
0001
1000
0010
0100
0001
,
1000
0010
0100
0001
0010
1000
0010
0001
,
1000
0010
0100
0001
1000
0001
0010
0100
,
1000
0001
0010
1000
0100
0010
0001
1000
,
0100
0000
0000
0010
0100
0000
0001
0000
1000
0000
0010
0000
0100
0000
0001
0000
,
1000
0100
0010
0001
1000
0010
0001
0100
,
0010
0000
0000
1000
0100
0000
0010
0000
0001
0000
1000
0000
0010
0000
0100
0000
,
0001
1000
0001
0010
0001
1000
0010
0100
,
0002
0000
0020
0000
0200
0000
0333
1000
,
0001
0010
0100
2000
0000
0000
3100
0000
,
0010
0000
0001
1000
0000
0100
0000
0020
,
0000
0000
0030
1000
0100
0010
0001
0010
,
1100
0000
0110
0000
0011
0000
1100
0110
,
0000
0011
0000
0100
0010
0001
1000
0100
,
0010
0000
1000
0200
0000
0310
0001
2000
,
0000
0000
0000
0000
0000
0000
3100
0010
0001
0000
0010
0000
0100
0000
0010
0000
,
1001
1100
0110
0011
,
1000
0000
0100
0000
1000
0000
0100
0000
1000
0000
0000
0000
1000
0000
0000
0010
,
0100
0000
1000
0000
0100
0000
0010
0001
,
0020
0000
0000
0000
0000
0000
0031
1000
0100
0000
0010
0000
0001
0000
1000
0000
,
0100
0010
0001
0000
1000
0010
0100
0000
,
0001
0010
0100
0000
1000
0010
0100
0001
,
0010
0100
1000
0000
0001
0010
0001
0000
,
0100
0000
1000
0000
0010
0000
0001
0010
0100
0000
1000
0000
0010
0000
0100
0000
,
0011
1100
0110
1010
,
0010
0000
0001
0000
0010
0000
0001
0000
0010
0000
0000
0000
1000
0000
0000
0010
,
0100
0000
0001
0000
0010
0000
0100
1000
,
0010
0000
0000
0000
0000
0000
1000
0001
0100
0000
0010
0000
0100
0000
0001
0000
,
1010
0001
0010
0100
1010
0100
0010
0001
,
0011
1000
0010
0100
0110
1000
0010
0100
,
0011
0001
0010
0100
1010
0001
0010
0100
,
0011
1000
0010
0100
0110
1000
0001
0010
,
1001
0010
1001
0100
1100
0001
0110
1000
,
0101
0000
0001
0000
0110
0000
0100
0000
1010
0000
0001
0000
0101
0000
0000
0010
,
0100
0000
1000
0000
0010
0000
0100
0010
,
0001
1000
0001
1000
0001
1000
0001
1000
0001
1000
0001
1000
0001
1000
0001
1000
,
0110
0000
0000
1000
,
2000
0000
0000
3100
0000
0000
0020
0000
,
0032
0000
0000
0103
0000
0000
2000
0000
,
3020
0000
0000
0130
0000
0000
2000
0000
,
3002
0000
0000
0023
,
0230
0000
0000
0310
0000
0000
0002
0000
,
2003
0000
0000
3100
0000
0000
0020
0000
,
0000
2000
0100
0001
,
0200
0000
3330
2000
,
3200
0000
0000
0310
0000
0000
0002
0000
,
0203
0000
0000
0310
0000
0000
0002
0000
,
2003
0000
0000
3100
0000
0000
0020
0000
,
0002
0100
1000
0100
1000
0100
1033
0100
,
0200
0000
0000
0310
0000
0000
0002
0000
,
0203
0000
0000
0310
0000
0000
2000
0000
,
0000
0200
0000
0000
,
0000
0000
3300
1000
0010
0100
0001
1000
,
0010
0200
0302
0023
2030
3200
0320
0032
,
2003
3020
0230
0301
0000
0001
0000
0002
,
0023
0230
2300
3002
0203
0320
2030
3020
,
0032
0023
2030
3001
0000
0001
0000
0002
,
0023
0230
0302
0023
0032
2003
3020
0230
,
0302
2003
3002
0203
0302
0203
0320
0230
,
0302
2003
3002
0023
0230
2300
3200
0320
,
0032
2003
3200
0301
0010
0100
0010
0001
,
0010
0000
0000
1000
0100
0000
0010
0000
0001
0000
0000
0100
0010
0000
1000
0000
,
0100
0000
0000
0010
0001
0000
1000
0000
0010
0000
0100
0000
0001
0000
0010
0000
,
0100
0000
0000
0001
0010
0000
1000
0000
0100
0000
0000
1000
0010
0000
0100
0000
,
0010
0000
0000
0001
0010
0000
0100
0000
1000
0000
0010
0000
0100
0000
0001
0000
,
1000
0000
0000
0100
0010
0000
0001
0000
1000
0000
0000
0010
0100
0000
0001
0000
,
1000
0010
0100
0002
0000
0000
0013
0000
,
0100
0000
1000
0100
0000
0010
0000
0002
,
0000
0000
0000
0000
0003
0000
1000
0100
0010
0000
0100
0000
0001
0000
1000
0000
,
0011
0100
1100
0010
0101
0010
1100
0001
,
1001
0010
1010
0001
0010
0100
1000
0010
,
0110
0001
1100
0010
0011
1000
0110
1000
,
0011
0000
0010
0000
0110
0000
1000
0010
0100
0000
0001
0000
0010
0000
0100
0000
,
1100
0110
0011
1001
,
1000
0000
0010
0000
0100
0000
0001
0000
1000
0000
0000
0000
0001
0000
0000
0010
,
0100
0000
1000
0000
0010
0000
0100
0001
,
0100
0000
0000
0000
0000
0000
1000
0100
1000
0000
0010
0000
0100
0000
0001
0000
,
1000
0100
0010
0001
1000
0010
0100
0002
,
0000
0013
0000
0010
0100
0010
1000
0001
,
0010
0100
1000
0001
0010
1000
0001
0020
,
0000
0000
0030
0000
0000
0000
0100
0001
0010
0000
0001
0000
1000
0000
0001
0000
,
0110
0100
1010
0001
0110
0001
0011
0100
,
1000
0000
0010
0000
0100
0000
0001
0000
2000
0000
0000
0000
3100
0000
0000
0010
,
0001
0000
0010
0000
0100
0000
0001
0010
,
0200
0000
0000
1300
0010
0100
0001
1000
,
0020
0000
0000
0130
1000
0000
0001
0010
,
0100
0010
0001
1000
0010
0100
0001
1000
,
0200
0000
1300
0100
0000
0010
0001
1000
,
0010
0100
0010
0001
1000
0010
0100
0010
,
1100
0000
0110
0000
0011
0000
1100
0001
,
1000
0010
0100
0001
1000
0000
1000
0000
,
0002
0000
1003
0200
0000
0320
0000
0031
,
1000
0010
0100
0001
1000
0001
0010
0001
1000
0001
0010
1000
0001
0010
0100
0010
,
1001
0000
0000
0000
;
